osu file format v14

[General]
AudioFilename: Bumblefuck.mp3
AudioLeadIn: 1500
PreviewTime: 35048
Countdown: 0
SampleSet: Normal
StackLeniency: 0.2
Mode: 1
LetterboxInBreaks: 0
WidescreenStoryboard: 0

[Editor]
DistanceSpacing: 1.2
BeatDivisor: 2
GridSize: 32
TimelineZoom: 1.8

[Metadata]
Title:Bumblefuck
TitleUnicode:Bumblefuck
Artist:Renard
ArtistUnicode:Renard
Creator:Lost The Lights
Version:Dekaane's Futsuu
Source:
Tags:BEST OF VOL 1: Because Maybe! electronic lapfox trax killer bee attack force queenston -Anhedonia- kazukisinx MikuWhiteRockShooter MikuWRS DakeDekaane
BeatmapID:696202
BeatmapSetID:243045

[Difficulty]
HPDrainRate:5
CircleSize:4
OverallDifficulty:4
ApproachRate:9
SliderMultiplier:1.4
SliderTickRate:2

[Events]
//Background and Video events
0,0,"VULPvibe Records - Killer Bee Attack Force - cover.PNG",0,0
//Break Periods
//Storyboard Layer 0 (Background)
//Storyboard Layer 1 (Fail)
//Storyboard Layer 2 (Pass)
//Storyboard Layer 3 (Foreground)
//Storyboard Sound Samples

[TimingPoints]
139,272.727272727273,4,1,0,80,1,0
43775,-100,4,1,0,80,0,1
51411,-100,4,1,0,80,0,0
52502,-100,4,1,0,80,0,1
61229,-100,4,1,0,80,0,0
143048,-100,4,1,0,80,0,1
150684,-100,4,1,0,80,0,0
151775,-100,4,1,0,80,0,1
160502,-100,4,1,0,80,0,0

[Colours]
Combo1 : 255,128,0
Combo2 : 128,128,128
Combo3 : 255,255,0
Combo4 : 255,0,0

[HitObjects]
256,192,8866,5,4,0:0:0:0:
256,192,9139,1,4,0:0:0:0:
256,192,13229,1,4,0:0:0:0:
256,192,13502,1,4,0:0:0:0:
256,192,17593,1,0,0:0:0:0:
256,192,17866,1,0,0:0:0:0:
256,192,18002,1,0,0:0:0:0:
256,192,18139,1,0,0:0:0:0:
256,192,18411,1,0,0:0:0:0:
256,192,18684,1,0,0:0:0:0:
256,192,18957,1,8,0:0:0:0:
256,192,19093,1,8,0:0:0:0:
256,192,19229,1,8,0:0:0:0:
256,192,19775,1,0,0:0:0:0:
256,192,20048,1,0,0:0:0:0:
256,192,20184,1,0,0:0:0:0:
256,192,20320,1,8,0:0:0:0:
256,192,20593,1,0,0:0:0:0:
256,192,20729,1,0,0:0:0:0:
256,192,20866,1,8,0:0:0:0:
256,192,21957,1,0,0:0:0:0:
256,192,22229,1,0,0:0:0:0:
256,192,22366,1,0,0:0:0:0:
256,192,22502,1,0,0:0:0:0:
256,192,22775,1,0,0:0:0:0:
256,192,23048,1,0,0:0:0:0:
256,192,23320,1,8,0:0:0:0:
256,192,23457,1,8,0:0:0:0:
256,192,23593,1,8,0:0:0:0:
256,192,24139,1,0,0:0:0:0:
256,192,24411,1,0,0:0:0:0:
256,192,24548,1,0,0:0:0:0:
256,192,24684,1,8,0:0:0:0:
256,192,24957,1,0,0:0:0:0:
256,192,25093,1,0,0:0:0:0:
256,192,25229,1,8,0:0:0:0:
256,192,26320,1,0,0:0:0:0:
256,192,26593,1,8,0:0:0:0:
256,192,26729,1,8,0:0:0:0:
256,192,26866,1,0,0:0:0:0:
256,192,27139,1,8,0:0:0:0:
256,192,27275,1,8,0:0:0:0:
256,192,27411,1,0,0:0:0:0:
256,192,27957,1,8,0:0:0:0:
256,192,28229,1,8,0:0:0:0:
256,192,28502,1,0,0:0:0:0:
256,192,28775,1,0,0:0:0:0:
256,192,28911,1,0,0:0:0:0:
256,192,29048,1,0,0:0:0:0:
256,192,29320,1,0,0:0:0:0:
256,192,29593,1,8,0:0:0:0:
256,192,30684,1,0,0:0:0:0:
256,192,30957,1,8,0:0:0:0:
256,192,31093,1,8,0:0:0:0:
256,192,31229,1,0,0:0:0:0:
256,192,31502,1,8,0:0:0:0:
256,192,31639,1,8,0:0:0:0:
256,192,31775,1,0,0:0:0:0:
256,192,32320,1,8,0:0:0:0:
256,192,32593,1,8,0:0:0:0:
256,192,32866,1,0,0:0:0:0:
256,192,33139,1,0,0:0:0:0:
256,192,33275,1,0,0:0:0:0:
256,192,33411,1,0,0:0:0:0:
256,192,33684,1,0,0:0:0:0:
256,192,33957,12,0,34502,0:0:0:0:
256,192,35048,5,0,0:0:0:0:
256,192,35320,1,8,0:0:0:0:
256,192,35457,1,8,0:0:0:0:
256,192,35593,1,8,0:0:0:0:
256,192,36139,1,0,0:0:0:0:
256,192,36957,1,0,0:0:0:0:
256,192,37229,1,8,0:0:0:0:
256,192,37775,1,0,0:0:0:0:
256,192,37911,1,0,0:0:0:0:
256,192,38048,1,0,0:0:0:0:
256,192,38320,1,8,0:0:0:0:
256,192,39411,1,8,0:0:0:0:
256,192,39684,1,0,0:0:0:0:
256,192,39820,1,0,0:0:0:0:
256,192,39957,1,0,0:0:0:0:
256,192,40502,1,8,0:0:0:0:
256,192,41320,1,0,0:0:0:0:
256,192,41593,1,8,0:0:0:0:
256,192,42139,1,0,0:0:0:0:
256,192,42275,1,0,0:0:0:0:
256,192,42411,1,0,0:0:0:0:
256,192,42684,1,8,0:0:0:0:
256,192,43775,1,0,0:0:0:0:
256,192,44048,1,0,0:0:0:0:
256,192,44184,1,0,0:0:0:0:
256,192,44320,1,0,0:0:0:0:
256,192,44593,1,8,0:0:0:0:
256,192,44866,1,0,0:0:0:0:
256,192,45139,1,0,0:0:0:0:
256,192,45275,1,0,0:0:0:0:
256,192,45684,1,0,0:0:0:0:
256,192,45820,1,0,0:0:0:0:
256,192,45957,1,0,0:0:0:0:
256,192,46229,1,8,0:0:0:0:
256,192,46502,1,0,0:0:0:0:
256,192,46639,1,0,0:0:0:0:
256,192,46775,1,0,0:0:0:0:
256,192,47048,1,8,0:0:0:0:
256,192,47320,1,0,0:0:0:0:
256,192,47457,1,0,0:0:0:0:
256,192,47866,1,8,0:0:0:0:
256,192,48002,1,8,0:0:0:0:
256,192,48139,1,0,0:0:0:0:
256,192,48411,1,0,0:0:0:0:
256,192,48548,1,0,0:0:0:0:
256,192,48684,1,0,0:0:0:0:
256,192,48957,1,8,0:0:0:0:
256,192,49229,1,0,0:0:0:0:
256,192,49502,1,0,0:0:0:0:
256,192,49639,1,0,0:0:0:0:
256,192,50048,1,0,0:0:0:0:
256,192,50184,1,0,0:0:0:0:
256,192,50320,1,0,0:0:0:0:
256,192,50593,1,8,0:0:0:0:
256,192,50866,1,0,0:0:0:0:
256,192,51002,1,0,0:0:0:0:
256,192,51139,1,0,0:0:0:0:
256,192,51411,1,8,0:0:0:0:
256,192,52502,1,0,0:0:0:0:
256,192,52775,1,0,0:0:0:0:
256,192,52911,1,0,0:0:0:0:
256,192,53048,1,0,0:0:0:0:
256,192,53320,1,8,0:0:0:0:
256,192,53593,1,0,0:0:0:0:
256,192,53866,1,8,0:0:0:0:
256,192,54002,1,8,0:0:0:0:
256,192,54411,1,0,0:0:0:0:
256,192,54548,1,0,0:0:0:0:
256,192,54684,1,0,0:0:0:0:
256,192,54957,1,8,0:0:0:0:
256,192,55229,1,0,0:0:0:0:
256,192,55366,1,0,0:0:0:0:
256,192,55502,1,0,0:0:0:0:
256,192,55775,1,8,0:0:0:0:
256,192,56048,1,0,0:0:0:0:
256,192,56184,1,0,0:0:0:0:
256,192,56593,1,8,0:0:0:0:
256,192,56729,1,8,0:0:0:0:
256,192,56866,1,0,0:0:0:0:
256,192,57139,1,0,0:0:0:0:
256,192,57275,1,0,0:0:0:0:
256,192,57411,1,0,0:0:0:0:
256,192,57684,1,8,0:0:0:0:
256,192,57957,1,0,0:0:0:0:
256,192,58229,1,8,0:0:0:0:
256,192,58366,1,8,0:0:0:0:
256,192,58775,1,0,0:0:0:0:
256,192,58911,1,0,0:0:0:0:
256,192,59048,1,0,0:0:0:0:
256,192,59320,1,8,0:0:0:0:
256,192,59593,1,0,0:0:0:0:
256,192,59729,1,0,0:0:0:0:
256,192,59866,1,0,0:0:0:0:
256,192,60139,2,0,B|512:192|512:192|480:160,1,280,,,0:0:0:0:
256,192,61229,1,4,0:0:0:0:
256,192,61502,1,4,0:0:0:0:
256,192,65593,1,4,0:0:0:0:
256,192,65866,1,4,0:0:0:0:
256,192,69957,1,8,0:0:0:0:
256,192,70229,1,0,0:0:0:0:
256,192,70366,1,0,0:0:0:0:
256,192,70639,1,0,0:0:0:0:
256,192,71048,1,8,0:0:0:0:
256,192,71320,1,0,0:0:0:0:
256,192,71457,1,0,0:0:0:0:
256,192,72139,1,8,0:0:0:0:
256,192,72411,1,0,0:0:0:0:
256,192,72548,1,0,0:0:0:0:
256,192,72820,1,0,0:0:0:0:
256,192,73229,1,8,0:0:0:0:
256,192,73502,1,0,0:0:0:0:
256,192,73639,1,0,0:0:0:0:
256,192,74320,1,8,0:0:0:0:
256,192,74593,1,0,0:0:0:0:
256,192,74729,1,0,0:0:0:0:
256,192,75002,1,0,0:0:0:0:
256,192,75139,1,0,0:0:0:0:
256,192,75411,1,0,0:0:0:0:
256,192,75548,1,0,0:0:0:0:
256,192,75684,1,0,0:0:0:0:
256,192,75957,1,0,0:0:0:0:
256,192,76229,1,8,0:0:0:0:
256,192,76502,1,0,0:0:0:0:
256,192,76639,1,0,0:0:0:0:
256,192,76775,1,0,0:0:0:0:
256,192,76911,1,0,0:0:0:0:
256,192,77048,1,0,0:0:0:0:
256,192,77320,1,0,0:0:0:0:
256,192,77593,2,0,B|512:192|512:192|512:0|512:0|384:0,1,560,,,0:0:0:0:
256,192,79775,12,0,80593,0:0:0:0:
256,192,80866,5,0,0:0:0:0:
256,192,81275,1,0,0:0:0:0:
256,192,81411,1,0,0:0:0:0:
256,192,81684,1,0,0:0:0:0:
256,192,82229,1,8,0:0:0:0:
256,192,82502,1,8,0:0:0:0:
256,192,83048,1,0,0:0:0:0:
256,192,83320,1,0,0:0:0:0:
256,192,83457,1,0,0:0:0:0:
256,192,83593,1,0,0:0:0:0:
256,192,83866,1,0,0:0:0:0:
256,192,84411,1,8,0:0:0:0:
256,192,84684,1,8,0:0:0:0:
256,192,85229,1,0,0:0:0:0:
256,192,85639,1,0,0:0:0:0:
256,192,85775,1,0,0:0:0:0:
256,192,86048,1,0,0:0:0:0:
256,192,86593,1,8,0:0:0:0:
256,192,86866,1,8,0:0:0:0:
256,192,87411,1,0,0:0:0:0:
256,192,87684,1,0,0:0:0:0:
256,192,87820,1,0,0:0:0:0:
256,192,87957,1,0,0:0:0:0:
256,192,88229,1,0,0:0:0:0:
256,192,88502,1,8,0:0:0:0:
256,192,89593,1,8,0:0:0:0:
256,192,89729,1,8,0:0:0:0:
256,192,90002,1,0,0:0:0:0:
256,192,90139,1,0,0:0:0:0:
256,192,90411,1,8,0:0:0:0:
256,192,90684,1,0,0:0:0:0:
256,192,90820,1,0,0:0:0:0:
256,192,91093,1,8,0:0:0:0:
256,192,91229,1,8,0:0:0:0:
256,192,91775,1,0,0:0:0:0:
256,192,91911,1,0,0:0:0:0:
256,192,92184,1,0,0:0:0:0:
256,192,92320,1,0,0:0:0:0:
256,192,92593,1,8,0:0:0:0:
256,192,92866,1,0,0:0:0:0:
256,192,93002,1,0,0:0:0:0:
256,192,93275,1,8,0:0:0:0:
256,192,93411,1,8,0:0:0:0:
256,192,93957,1,8,0:0:0:0:
256,192,94093,1,8,0:0:0:0:
256,192,94366,1,0,0:0:0:0:
256,192,94502,1,0,0:0:0:0:
256,192,94775,1,8,0:0:0:0:
256,192,95048,1,0,0:0:0:0:
256,192,95184,1,0,0:0:0:0:
256,192,95457,1,8,0:0:0:0:
256,192,95593,1,8,0:0:0:0:
256,192,96139,1,0,0:0:0:0:
256,192,96275,1,0,0:0:0:0:
256,192,96548,1,0,0:0:0:0:
256,192,96684,1,0,0:0:0:0:
256,192,96957,1,8,0:0:0:0:
256,192,97229,1,4,0:0:0:0:
256,192,98320,1,4,0:0:0:0:
256,192,98593,1,4,0:0:0:0:
256,192,102684,1,4,0:0:0:0:
256,192,102957,1,4,0:0:0:0:
256,192,107048,1,8,0:0:0:0:
256,192,107320,1,0,0:0:0:0:
256,192,107457,1,0,0:0:0:0:
256,192,107729,1,0,0:0:0:0:
256,192,108139,1,8,0:0:0:0:
256,192,108411,1,0,0:0:0:0:
256,192,108548,1,0,0:0:0:0:
256,192,109229,1,8,0:0:0:0:
256,192,109502,1,0,0:0:0:0:
256,192,109639,1,0,0:0:0:0:
256,192,109911,1,0,0:0:0:0:
256,192,110320,1,8,0:0:0:0:
256,192,110593,1,0,0:0:0:0:
256,192,110729,1,0,0:0:0:0:
256,192,111411,1,8,0:0:0:0:
256,192,111684,1,0,0:0:0:0:
256,192,111820,1,0,0:0:0:0:
256,192,112093,1,0,0:0:0:0:
256,192,112229,1,0,0:0:0:0:
256,192,112502,1,0,0:0:0:0:
256,192,112639,1,0,0:0:0:0:
256,192,112775,1,0,0:0:0:0:
256,192,113048,1,0,0:0:0:0:
256,192,113320,1,8,0:0:0:0:
256,192,113593,1,0,0:0:0:0:
256,192,113729,1,0,0:0:0:0:
256,192,113866,1,0,0:0:0:0:
256,192,114002,1,0,0:0:0:0:
256,192,114139,1,0,0:0:0:0:
256,192,114411,1,0,0:0:0:0:
256,192,114684,2,0,B|512:192|512:192|512:0|512:0|384:0,1,560,,,0:0:0:0:
288,192,120139,5,8,0:0:0:0:
256,192,124502,2,0,B|512:192|512:192|512:0|512:0|160:0,1,770,,,0:0:0:0:
256,192,128866,5,8,0:0:0:0:
256,192,131048,12,0,132957,0:0:0:0:
256,192,133229,12,0,134048,0:0:0:0:
256,192,134320,5,0,0:0:0:0:
256,192,134729,1,8,0:0:0:0:
256,192,134866,1,8,0:0:0:0:
256,192,135139,1,0,0:0:0:0:
256,192,135411,1,0,0:0:0:0:
256,192,135820,1,8,0:0:0:0:
256,192,135957,1,8,0:0:0:0:
256,192,136502,1,0,0:0:0:0:
256,192,136911,1,8,0:0:0:0:
256,192,137048,1,8,0:0:0:0:
256,192,137320,1,0,0:0:0:0:
256,192,137593,1,0,0:0:0:0:
256,192,138002,1,8,0:0:0:0:
256,192,138139,1,8,0:0:0:0:
256,192,138684,1,0,0:0:0:0:
256,192,139093,1,8,0:0:0:0:
256,192,139229,1,8,0:0:0:0:
256,192,139502,1,0,0:0:0:0:
256,192,139775,1,0,0:0:0:0:
256,192,140184,1,8,0:0:0:0:
256,192,140320,1,8,0:0:0:0:
256,192,140866,1,0,0:0:0:0:
256,192,141275,1,8,0:0:0:0:
256,192,141411,1,8,0:0:0:0:
256,192,141684,1,0,0:0:0:0:
256,192,141957,12,0,142775,0:0:0:0:
256,192,143048,5,0,0:0:0:0:
256,192,143320,1,0,0:0:0:0:
256,192,143457,1,0,0:0:0:0:
256,192,143593,1,0,0:0:0:0:
256,192,143866,1,8,0:0:0:0:
256,192,144139,1,0,0:0:0:0:
256,192,144275,1,0,0:0:0:0:
256,192,144548,1,8,0:0:0:0:
256,192,144684,1,8,0:0:0:0:
256,192,145229,1,8,0:0:0:0:
256,192,145502,1,0,0:0:0:0:
256,192,145639,1,0,0:0:0:0:
256,192,145775,1,0,0:0:0:0:
256,192,146048,1,8,0:0:0:0:
256,192,146320,1,0,0:0:0:0:
256,192,146593,1,0,0:0:0:0:
256,192,146729,1,0,0:0:0:0:
256,192,147411,1,0,0:0:0:0:
256,192,147684,1,0,0:0:0:0:
256,192,147820,1,0,0:0:0:0:
256,192,147957,1,0,0:0:0:0:
256,192,148229,1,8,0:0:0:0:
256,192,148502,1,0,0:0:0:0:
256,192,148639,1,0,0:0:0:0:
256,192,148911,1,8,0:0:0:0:
256,192,149048,1,8,0:0:0:0:
256,192,149593,1,0,0:0:0:0:
256,192,149866,1,0,0:0:0:0:
256,192,150002,1,0,0:0:0:0:
256,192,150139,1,0,0:0:0:0:
256,192,150411,1,8,0:0:0:0:
256,192,150684,1,0,0:0:0:0:
256,192,151775,1,4,0:0:0:0:
256,192,152048,1,4,0:0:0:0:
256,192,152320,1,4,0:0:0:0:
256,192,152593,1,4,0:0:0:0:
256,192,152866,1,12,0:0:0:0:
256,192,153139,1,12,0:0:0:0:
256,192,153411,1,12,0:0:0:0:
256,192,153684,1,12,0:0:0:0:
256,192,153957,1,4,0:0:0:0:
256,192,154229,1,4,0:0:0:0:
256,192,154502,1,4,0:0:0:0:
256,192,154775,1,4,0:0:0:0:
256,192,155048,1,12,0:0:0:0:
256,192,155320,1,12,0:0:0:0:
256,192,155593,1,12,0:0:0:0:
256,192,155866,1,12,0:0:0:0:
256,192,156139,1,0,0:0:0:0:
256,192,156411,1,0,0:0:0:0:
256,192,156548,1,0,0:0:0:0:
256,192,156684,1,0,0:0:0:0:
256,192,156957,1,0,0:0:0:0:
256,192,157229,1,8,0:0:0:0:
256,192,157502,1,8,0:0:0:0:
256,192,157639,1,8,0:0:0:0:
256,192,157775,1,8,0:0:0:0:
256,192,158048,1,8,0:0:0:0:
256,192,158320,2,0,B|512:192|512:192|512:0|512:0|384:0,1,560,,,0:0:0:0:
256,192,160502,5,4,0:0:0:0:
256,192,163775,1,8,0:0:0:0:
256,192,163911,1,8,0:0:0:0:
256,192,164048,1,8,0:0:0:0:
256,192,164320,1,0,0:0:0:0:
256,192,164593,1,8,0:0:0:0:
256,192,164729,1,8,0:0:0:0:
256,192,164866,1,0,0:0:0:0:
